Most viewed

Its superior entertainment options, with integrated video and Dolby audio codecs, allow you to watch and record TV in Windows Media Centre and watch your favourite DVDs.DirectX 9 graphics device with wddm.0 or higher driver.Yes, the keys are 100 legitimate..
Read more
Folder Marker Pro can change a folder's color to normal, dark and light states.In your search, excluding those words will result in better results.Folder Marker Pro - a helper specially designed for office work.After paying the registration fee or completing..
Read more

Hans zimmer sherlock holmes a game of shadows soundtrack


hans zimmer sherlock holmes a game of shadows soundtrack

09 - F:Music losslessHans Zimmer - Sherlock Holmes - A Game Of Shadows lossless09 - Hans Zimmer - The Mycroft Suite.
06 - F:Music losslessHans Zimmer - Sherlock Holmes - A Game Of Shadows lossless06 - Hans Zimmer - Romanian Wind.Exe Additional command line options : -8 -V -T "artistartist" -T "titletitle" -T "albumalbumtitle" -T "dateyear" -T "tracknumbertracknr" -T "genregenre" -T "performeralbuminterpret" -T "composercomposer" source -o dest TOC of the extracted CD Track Start Length Start sector End sector :00.00 0:39.Snailkick) Mungo Jerry - Hello Nadine Oscar Benton - Good Old Loving Oscar Benton - You And I Charlie Puth - Attention Taylor Swift - Look What You Made Me Do Queen - Was It All Worth.EAC extraction logfile from.Romani Holiday (Antonius Remix).Hans Zimmer 0509.Race To Ritual Pts.08 - F:Music losslessHans Zimmer - Sherlock Holmes - A Game Of Shadows lossless08 - Hans Zimmer - He's All Me.Wav Peak level.7 Extraction speed.2 X Track quality 100.0 Test CRC 7FC176D5 Copy CRC 7FC176D5 Track not present xbmc 13.0 alpha 11 in AccurateRip database Copy OK Track 13 Filename C:Music13 - Hans Zimmer - Zu Viele Fuechse Fuer Euch Haensel.02 - F:Music losslessHans Zimmer - Sherlock Holmes - A Game Of Shadows lossless02 - Hans Zimmer - That Is My Curse (Shadows - Part 1).flac Extracted successfully Conclusion: this track is cdda with probability 100 Tempfile successfully deleted.17 - F:Music losslessHans Zimmer - Sherlock Holmes - A Game Of Shadows lossless17 - Hans Zimmer - The End.
Wav Pre-gap length 0:00:02.00 Peak level.0 Extraction speed.7 X Track quality 100.0 Test CRC 67FFF9F6 Copy CRC 67FFF9F6 Track not present in AccurateRip database Copy OK Track 2 Filename C:Music02 - Hans Zimmer - That Is My Curse (Shadows - Part 1).wav Peak.
Wav Peak level.7 Extraction speed.2 X Track quality 100.0 Test CRC D7ceac77 Copy CRC D7ceac77 Track not present in AccurateRip database Copy OK Track 8 Filename C:Music08 - Hans Zimmer - He's All Me.
Flac Extracted successfully Conclusion: this track is cdda with probability 100 Tempfile successfully deleted.
Wav Peak level.7 Extraction speed.1 X Track quality 100.0 Test CRC 7442CB4F Copy CRC 7442CB4F Track not present in AccurateRip database Copy OK Track 14 Filename C:Music14 - Hans Zimmer - The Red Book.
Make use of C2 pointers :.15 - F:Music losslessHans Zimmer - Sherlock Holmes - A Game Of Shadows lossless15 - Hans Zimmer - Moral Insanity.04 - F:Music losslessHans Zimmer - Sherlock Holmes - A Game Of Shadows lossless04 - Hans Zimmer - Chess (Shadows - Part 3).flac Extracted successfully Conclusion: this track is cdda with probability 100 Tempfile successfully deleted.Used drive : tsstcorpCD/dvdw SH-S182M Adapter: 0 ID:.11 - F:Music losslessHans Zimmer - Sherlock Holmes - A Game Of Shadows lossless11 - Movie Screen Orchestra - Two Mules For Sister Sara.The Mycroft Suite.


Sitemap